affiliate marketingMy Dogs Christmas Miracle 2011 DVDRip XviD-aAF

The Official Tambayan ng Bayan

Convert your Points Into LOAD click here
Top posters

You are not connected. Please login or register

View previous topic View next topic Go down Message [Page 1 of 1]

Johnzki
Johnzki

Johnzki
Administrator
Administrator
Loading
[You must be registered and logged in to see this image.]

PLOT:
A festive tale about a mischievous but lovable puppy, named Cinnamon, who is determined to break-up her devoted mummy’s new relationship. When a unlucky-in-love university professor, Madeline, meets single architect, Kevin, an unlikely romance begins to blossom. What nobody expects is that Madeline’s Maltese puppy, Cinnamon, has other ideas. Not wanting to lose Madeline to romance, crafty little Cinnamon acts out, spoiling dates whenever she can and trying to break up the relationship. She has her chance to ruin the relationship altogether when Kevin agrees to take care of her and she runs away. Will Kevin be able to find her before Madeline finds out and he’s left single and alone at Christmas?

SCREENSHOT

[You must be registered and logged in to see this image.]
[You must be registered and logged in to see this image.]
[You must be registered and logged in to see this image.]

INFORMATION
Language: English
Genre: Comedy

General
Complete name: aaf-my.dogs.christmas.miracle.2011.dvdrip.xvid.avi
Format : AVI
Format/Info: Audio Video Interleave
File size: 700 MiB
Duration : 1h 27mn
Overall bit rate mode: Variable
Overall bit rate : 1 114 Kbps
Writing application: VirtualDubMod 1.5.10.2 (build 2540/release)
Writing library: VirtualDubMod build 2540/release

Video
ID : 0
Format : MPEG-4 Visual
Format profile : Advanced Simple@L5
Format settings, BVOP: 2
Format settings, QPel: No
Format settings, GMC : No warppoints
Format settings, Matrix: Default (H.263)
Codec ID : XVID
Codec ID/Hint: XviD
Duration : 1h 27mn
Bit rate : 973 Kbps
Width: 624 pixels
Height : 352 pixels
Display aspect ratio : 16:9
Frame rate : 25.000 fps
Color space: YUV
Chroma subsampling : 4:2:0
Bit depth: 8 bits
Scan type: Progressive
Compression mode : Lossy
Bits/(Pixel*Frame) : 0.177
Stream size: 611 MiB (87%)
Writing library: XviD 64

Audio
ID : 1
Format : MPEG Audio
Format version : Version 1
Format profile : Layer 3
Mode : Joint stereo
Codec ID : 55
Codec ID/Hint: MP3
Duration : 1h 27mn
Bit rate mode: Variable
Bit rate : 128 Kbps
Channel(s) : 2 channels
Sampling rate: 48.0 KHz
Compression mode : Lossy
Stream size: 80.8 MiB (12%)
Alignment: Aligned on interleaves
Interleave, duration : 24 ms (0.60 video frame)
Interleave, preload duration : 142 ms
Writing library: LAME3.90.
Encoding settings: -m j -V 4 -q 2 -lowpass 17.6 --abr 128

DOWNLOAD LINK:
[You must be registered and logged in to see this link.]





[You must be registered and logged in to see this image.]
[You must be registered and logged in to see this image.]JOHNZKI [You must be registered and logged in to see this image.]
http://www.pinoyhunters.com

Advertising poster


View previous topic View next topic Back to top Message [Page 1 of 1]

Permissions in this forum: You cannot reply to topics in this forum